<?xml version="1.0" encoding="UTF-8" standalone="no"?>
<svg
   version="1.2"
   width="135mm"
   height="58mm"
   viewBox="0 0 13500 5800"
   preserveAspectRatio="xMidYMid"
   fill-rule="evenodd"
   stroke-width="28.222"
   stroke-linejoin="round"
   xml:space="preserve"
   id="svg162"
   sodipodi:docname="main_.svg"
   inkscape:version="1.2.2 (b0a8486541, 2022-12-01)"
   xmlns:inkscape="http://www.inkscape.org/namespaces/inkscape"
   xmlns:sodipodi="http://sodipodi.sourceforge.net/DTD/sodipodi-0.dtd"
   xmlns="http://www.w3.org/2000/svg"
   xmlns:svg="http://www.w3.org/2000/svg"
   xmlns:ooo="http://xml.openoffice.org/svg/export"><sodipodi:namedview
   id="namedview164"
   pagecolor="#ffffff"
   bordercolor="#000000"
   borderopacity="0.25"
   inkscape:showpageshadow="2"
   inkscape:pageopacity="0.0"
   inkscape:pagecheckerboard="0"
   inkscape:deskcolor="#d1d1d1"
   inkscape:document-units="mm"
   showgrid="false"
   inkscape:zoom="2.1531609"
   inkscape:cx="275.64127"
   inkscape:cy="130.97024"
   inkscape:window-width="1920"
   inkscape:window-height="1131"
   inkscape:window-x="0"
   inkscape:window-y="0"
   inkscape:window-maximized="1"
   inkscape:current-layer="svg162" />
 <defs
   class="ClipPathGroup"
   id="defs8">
  <clipPath
   id="presentation_clip_path"
   clipPathUnits="userSpaceOnUse">
   <rect
   x="0"
   y="0"
   width="13500"
   height="5800"
   id="rect2" />
  </clipPath>
  <clipPath
   id="presentation_clip_path_shrink"
   clipPathUnits="userSpaceOnUse">
   <rect
   x="13"
   y="5"
   width="13473"
   height="5789"
   id="rect5" />
  </clipPath>
 </defs>
 <defs
   id="defs17">
  <font
   id="EmbeddedFont_1"
   horiz-adv-x="2048">
   <font-face
   font-family="Abyssinica SIL embedded"
   units-per-em="2048"
   font-weight="normal"
   font-style="normal"
   ascent="2011"
   descent="688"
   id="font-face10" />
   <missing-glyph
   horiz-adv-x="2048"
   d="M 0,0 L 2047,0 2047,2047 0,2047 0,0 Z"
   id="missing-glyph12" />
   <glyph
   unicode="-"
   horiz-adv-x="504"
   d="M 627,395 L 123,395 123,545 627,545 627,395 Z"
   id="glyph14" />
  </font>
 </defs>
 <defs
   id="defs70">
  <font
   id="EmbeddedFont_2"
   horiz-adv-x="2048">
   <font-face
   font-family="Irmologion Caps Ucs embedded"
   units-per-em="2048"
   font-weight="normal"
   font-style="normal"
   ascent="2223"
   descent="926"
   id="font-face19" />
   <missing-glyph
   horiz-adv-x="2048"
   d="M 0,0 L 2047,0 2047,2047 0,2047 0,0 Z"
   id="missing-glyph21" />
   <glyph
   unicode="Я"
   horiz-adv-x="1588"
   d="M 1643,0 L 1643,41 1561,41 1561,1536 1643,1536 1643,1577 1243,1577 1243,1536 1325,1536 1325,1286 891,1286 C 884,1314 869,1337 846,1357 823,1377 797,1387 768,1387 737,1387 709,1377 686,1357 663,1337 649,1314 645,1286 L 379,1286 379,1536 461,1536 461,1577 61,1577 61,1536 143,1536 143,41 61,41 61,0 461,0 461,41 379,41 379,1239 641,1239 C 648,1208 663,1182 686,1163 709,1143 737,1133 768,1133 799,1133 826,1143 848,1163 870,1182 884,1208 891,1239 L 1325,1239 1325,1164 C 1290,1127 1254,1094 1218,1064 1181,1035 1138,1004 1087,973 1056,954 1024,936 991,919 958,902 928,883 900,862 872,842 849,819 831,794 814,768 805,739 805,706 805,671 813,643 829,622 846,602 867,587 893,577 874,575 855,569 836,562 816,554 799,545 782,534 766,523 753,510 742,494 732,479 727,461 727,442 727,423 733,406 743,391 754,376 768,363 785,352 802,341 821,332 842,326 862,319 882,315 901,315 892,255 865,200 821,150 778,99 726,63 668,41 L 668,0 1194,0 1194,41 C 1150,55 1114,72 1086,94 1058,116 1036,139 1018,164 1000,188 987,214 978,241 969,267 963,292 961,315 981,315 1002,319 1023,326 1044,333 1063,342 1079,353 1096,364 1109,377 1120,392 1131,407 1137,423 1137,441 1137,477 1121,506 1091,528 1060,550 1027,565 991,573 1021,579 1052,590 1082,608 1113,626 1143,648 1171,675 1200,701 1228,731 1254,764 1281,797 1305,831 1325,868 L 1325,41 1243,41 1243,0 1643,0 Z M 1325,932 C 1305,902 1281,871 1255,839 1229,806 1202,777 1174,751 1145,725 1115,704 1084,687 1054,670 1024,661 995,661 975,661 958,666 946,677 934,687 928,699 928,714 928,739 932,760 941,777 950,794 962,810 977,824 992,839 1009,852 1028,865 1047,878 1068,892 1090,907 1133,937 1175,969 1213,1003 1252,1036 1290,1073 1325,1112 L 1325,932 Z"
   id="glyph23" />
   <glyph
   unicode="Ь"
   horiz-adv-x="980"
   d="M 1012,0 L 1012,41 930,41 930,721 C 927,721 915,722 895,724 874,726 850,729 820,734 791,739 769,743 754,748 706,761 660,779 615,800 571,821 531,841 496,860 460,879 432,896 411,910 389,925 379,932 379,932 L 379,1536 461,1536 461,1577 61,1577 61,1536 143,1536 143,41 61,41 61,0 1012,0 Z M 694,41 L 379,41 379,877 694,692 694,41 Z"
   id="glyph25" />
   <glyph
   unicode="Ц"
   horiz-adv-x="1112"
   d="M 1165,-315 L 1165,41 1008,41 1008,1536 1090,1536 1090,1577 690,1577 690,1536 772,1536 772,41 379,41 379,1536 461,1536 461,1577 61,1577 61,1536 143,1536 143,41 61,41 61,0 979,0 979,-315 791,-381 373,-137 141,-293 170,-348 270,-293 641,-512 1165,-315 Z"
   id="glyph27" />
   <glyph
   unicode="Х"
   horiz-adv-x="1245"
   d="M 1266,1284 C 1252,1323 1245,1359 1244,1392 1243,1424 1248,1466 1257,1516 1257,1520 1259,1524 1262,1529 1264,1534 1266,1540 1266,1546 1268,1565 1262,1576 1245,1577 1229,1578 1211,1578 1192,1575 1170,1575 1147,1565 1122,1545 1098,1525 1072,1500 1047,1469 1021,1439 995,1405 971,1368 946,1331 923,1295 901,1260 L 698,932 381,1536 463,1536 463,1577 61,1577 61,1536 143,1536 571,723 424,487 C 417,489 411,490 404,492 398,493 392,494 385,494 344,494 310,479 282,451 254,422 240,388 240,348 240,310 253,277 281,250 L 184,94 C 169,71 148,56 122,50 95,44 71,41 49,41 L 49,0 410,0 410,41 C 382,41 358,42 337,44 316,46 302,51 295,57 288,63 284,71 283,81 281,91 284,102 291,115 L 346,209 C 353,208 359,207 365,207 371,207 378,207 385,207 425,207 458,221 485,248 513,275 526,309 526,348 526,386 514,419 489,446 L 610,645 932,41 850,41 850,0 1255,0 1255,41 1174,41 735,854 895,1108 C 936,1174 977,1220 1018,1248 1059,1276 1091,1290 1114,1290 1132,1290 1147,1289 1159,1285 1171,1282 1182,1278 1192,1273 1201,1268 1211,1263 1222,1259 1232,1254 1245,1249 1260,1245 1265,1245 1269,1249 1271,1255 1273,1262 1271,1272 1266,1284 Z"
   id="glyph29" />
   <glyph
   unicode="У"
   horiz-adv-x="1192"
   d="M 1221,1538 C 1229,1546 1227,1555 1217,1563 1191,1578 1152,1585 1102,1585 1061,1585 1024,1578 990,1563 957,1548 927,1528 900,1503 873,1479 850,1450 830,1418 811,1386 793,1352 776,1315 756,1267 738,1223 723,1183 708,1142 695,1103 683,1064 671,1025 661,985 652,945 643,905 634,860 625,811 L 526,811 C 525,845 523,876 521,903 519,930 517,957 514,984 511,1011 508,1037 503,1064 498,1091 493,1120 487,1151 472,1227 457,1295 442,1353 427,1411 407,1472 381,1536 L 461,1536 461,1577 61,1577 61,1536 143,1536 C 158,1501 171,1468 182,1438 193,1408 203,1378 211,1348 219,1318 227,1287 235,1255 242,1224 249,1189 256,1151 261,1120 267,1091 271,1064 276,1037 280,1011 283,984 285,957 287,930 289,903 290,876 291,845 291,811 L 190,811 190,758 612,758 C 604,712 598,671 594,633 590,595 586,556 584,516 537,516 489,510 438,499 388,487 341,470 299,448 257,425 222,397 194,365 166,332 152,294 152,250 152,206 166,168 196,134 225,101 262,73 306,50 351,28 399,11 452,-1 504,-12 553,-18 598,-18 643,-18 692,-12 743,0 795,12 844,30 889,53 934,77 971,105 1001,137 1032,170 1047,208 1047,250 1047,292 1035,329 1011,361 987,392 956,419 918,440 879,462 837,479 792,492 746,504 702,512 659,516 662,560 666,603 670,645 674,688 681,736 692,791 702,837 711,879 719,917 727,954 737,991 748,1026 758,1062 771,1098 784,1136 798,1173 815,1215 836,1260 847,1286 860,1308 877,1326 893,1345 915,1354 942,1354 984,1354 1024,1341 1061,1316 1098,1291 1128,1263 1151,1233 1155,1227 1159,1225 1163,1225 1167,1225 1169,1227 1169,1233 1169,1251 1169,1266 1167,1279 1166,1292 1165,1303 1164,1314 1164,1325 1163,1336 1162,1348 1162,1359 1161,1373 1161,1388 1163,1420 1168,1447 1177,1469 1185,1491 1200,1514 1221,1538 Z M 993,250 C 993,213 980,181 953,154 927,126 893,104 853,87 813,70 770,57 724,48 678,39 636,35 598,35 558,35 516,39 470,47 424,55 382,68 343,85 304,102 272,124 246,152 220,179 207,212 207,250 207,287 219,319 243,346 267,374 297,396 334,413 371,430 411,443 456,452 500,461 542,465 582,465 L 578,346 C 576,319 563,298 537,284 511,269 481,262 446,262 L 346,262 346,215 838,215 838,262 729,262 C 707,262 688,269 673,284 657,298 649,319 649,346 649,389 651,427 655,463 692,460 731,454 771,446 811,437 848,424 881,407 913,390 940,368 962,342 983,316 993,285 993,250 Z"
   id="glyph31" />
   <glyph
   unicode="Т"
   horiz-adv-x="1377"
   d="M 1364,1577 L 72,1577 C 47,1577 38,1572 44,1561 50,1550 64,1532 86,1507 108,1483 132,1451 160,1412 187,1373 210,1326 227,1270 231,1256 239,1248 249,1246 259,1244 266,1251 270,1266 279,1292 290,1320 305,1352 320,1383 338,1412 358,1440 379,1467 401,1490 425,1508 449,1527 474,1536 502,1536 L 608,1536 608,41 526,41 526,0 926,0 926,41 844,41 844,1536 963,1536 C 983,1536 1003,1531 1021,1522 1039,1512 1057,1495 1074,1472 1091,1448 1108,1416 1123,1377 1139,1338 1154,1290 1167,1233 1170,1222 1176,1217 1185,1218 1194,1218 1199,1223 1202,1233 1214,1281 1234,1325 1261,1367 1287,1409 1312,1445 1334,1477 1357,1508 1373,1533 1382,1550 1392,1568 1386,1577 1364,1577 Z"
   id="glyph33" />
   <glyph
   unicode="С"
   horiz-adv-x="1059"
   d="M 1092,631 L 1092,672 659,672 659,631 741,631 C 741,602 741,572 739,539 738,506 735,473 731,440 727,408 721,376 713,346 705,316 694,290 680,266 653,219 617,176 574,137 531,99 479,69 418,47 418,118 413,183 404,243 396,302 386,360 375,418 364,475 354,534 345,593 336,652 332,718 332,791 332,864 336,945 345,1031 354,1118 368,1199 388,1274 408,1349 434,1411 465,1461 496,1511 534,1536 578,1536 599,1536 620,1524 640,1501 660,1478 677,1448 692,1410 707,1373 719,1330 728,1282 737,1235 741,1186 741,1137 L 659,1137 659,1096 1092,1096 1092,1137 1010,1137 C 978,1290 922,1401 840,1472 758,1542 664,1577 559,1577 485,1577 418,1553 357,1506 297,1459 244,1398 201,1323 157,1248 123,1164 99,1070 75,977 63,883 63,791 63,732 70,679 84,631 98,583 115,538 135,497 156,455 179,415 204,378 229,340 253,302 276,263 300,224 321,184 340,141 359,99 372,52 379,0 494,0 591,22 672,66 752,109 823,169 885,246 930,300 961,360 977,423 993,487 1004,556 1010,631 L 1092,631 Z"
   id="glyph35" />
   <glyph
   unicode="Р"
   horiz-adv-x="1112"
   d="M 1145,1225 C 1145,1292 1133,1348 1109,1393 1085,1438 1051,1474 1008,1502 964,1530 912,1550 851,1563 790,1575 722,1581 647,1581 587,1581 527,1574 467,1559 407,1545 353,1524 305,1495 257,1466 218,1431 188,1388 158,1346 143,1298 143,1243 L 143,41 61,41 61,0 461,0 461,41 379,41 379,686 633,979 C 694,934 756,906 817,896 879,886 934,891 982,912 1030,934 1070,970 1100,1023 1130,1076 1145,1143 1145,1225 Z M 905,1231 C 905,1194 900,1158 889,1123 878,1088 861,1060 838,1037 814,1015 785,1002 750,998 714,995 672,1007 623,1034 L 379,754 379,1249 C 379,1294 386,1335 399,1371 413,1407 432,1438 457,1462 481,1487 510,1506 543,1520 575,1533 610,1540 647,1540 740,1540 806,1514 846,1463 885,1412 905,1335 905,1231 Z"
   id="glyph37" />
   <glyph
   unicode="П"
   horiz-adv-x="1086"
   d="M 1126,0 L 1126,41 1044,41 1044,1536 1126,1536 1126,1577 61,1577 61,1536 143,1536 143,41 61,41 61,0 461,0 461,41 379,41 379,1536 809,1536 809,41 727,41 727,0 1126,0 Z"
   id="glyph39" />
   <glyph
   unicode="О"
   horiz-adv-x="980"
   d="M 395,0 C 473,14 550,38 626,74 701,109 769,154 827,207 886,260 934,323 970,394 1006,466 1024,545 1024,631 1024,721 1008,808 975,891 942,974 906,1055 866,1134 827,1212 791,1288 758,1362 725,1436 709,1507 709,1577 631,1565 554,1541 478,1506 402,1471 335,1427 275,1372 216,1318 168,1254 132,1183 96,1111 78,1032 78,946 78,853 94,764 127,679 160,594 196,512 237,433 277,355 313,280 346,208 379,136 395,67 395,0 Z M 317,946 C 317,1009 326,1070 342,1130 358,1191 381,1246 411,1296 440,1347 475,1390 515,1425 555,1461 599,1485 647,1499 639,1420 641,1346 654,1277 667,1208 684,1140 703,1072 723,1005 742,935 760,863 778,792 786,714 786,631 786,568 778,506 762,444 745,383 723,327 693,276 664,226 629,183 589,147 549,112 505,89 457,78 465,153 462,225 449,293 435,361 418,429 398,498 379,566 360,637 343,710 326,783 317,862 317,946 Z"
   id="glyph41" />
   <glyph
   unicode="Н"
   horiz-adv-x="1086"
   d="M 1126,0 L 1126,41 1044,41 1044,1536 1126,1536 1126,1577 727,1577 727,1536 809,1536 809,852 379,1008 379,1536 461,1536 461,1577 61,1577 61,1536 143,1536 143,41 61,41 61,0 461,0 461,41 379,41 379,946 809,791 809,41 727,41 727,0 1126,0 Z"
   id="glyph43" />
   <glyph
   unicode="М"
   horiz-adv-x="1668"
   d="M 1722,0 L 1722,41 1640,41 1640,1536 1722,1536 1722,1577 1323,1577 1323,1536 1405,1536 1405,1145 971,363 971,1536 1053,1536 1053,1577 653,1577 653,1536 735,1536 735,1202 C 716,1163 696,1127 675,1096 654,1064 630,1035 604,1007 578,979 551,952 522,927 494,901 463,875 430,846 362,786 307,720 265,648 224,577 193,504 172,431 152,358 140,287 137,219 134,151 137,91 143,41 L 61,41 61,0 461,0 461,41 381,41 C 375,70 371,108 367,155 363,202 363,253 367,309 371,365 380,423 393,482 407,542 429,598 459,651 481,691 503,727 527,761 551,794 575,827 599,859 623,891 646,924 670,956 693,989 715,1025 735,1065 L 735,41 653,41 653,0 1053,0 1053,41 971,41 971,256 1405,1042 1405,41 1323,41 1323,0 1722,0 Z"
   id="glyph45" />
   <glyph
   unicode="Л"
   horiz-adv-x="1139"
   d="M 143,41 L 61,41 61,0 551,0 551,41 469,41 C 454,61 443,89 437,125 431,160 428,196 428,231 428,320 445,401 480,473 515,545 563,620 623,696 658,743 698,790 743,838 788,885 826,939 856,999 L 856,41 774,41 774,0 1174,0 1174,41 1092,41 1092,1536 1174,1536 1174,1577 774,1577 774,1536 856,1536 856,1126 C 845,1072 817,1019 772,967 727,915 677,866 623,821 558,768 497,713 439,657 381,601 330,542 287,478 243,415 208,347 182,275 156,204 143,126 143,41 Z"
   id="glyph47" />
   <glyph
   unicode="К"
   horiz-adv-x="1086"
   d="M 379,846 C 453,857 518,882 577,923 635,963 682,1008 719,1059 739,1088 755,1122 767,1161 779,1201 786,1242 790,1286 793,1330 793,1374 790,1417 786,1461 780,1501 772,1536 L 690,1536 690,1577 1141,1577 1141,1536 1059,1536 C 1070,1496 1075,1450 1074,1398 1074,1345 1067,1293 1056,1240 1044,1188 1028,1138 1007,1092 985,1045 960,1008 930,979 896,948 860,921 823,899 786,877 747,859 705,844 735,832 765,815 797,795 828,774 858,752 886,727 914,702 939,676 961,648 982,620 999,591 1012,561 1050,466 1071,374 1074,288 1078,201 1072,119 1059,41 L 1141,41 1141,0 690,0 690,41 772,41 C 780,61 787,88 793,121 798,154 801,190 803,231 804,272 804,316 802,361 800,407 795,453 788,500 784,531 776,562 763,593 750,624 734,653 716,681 697,709 677,734 654,756 632,778 610,796 588,811 555,804 521,799 485,796 450,792 414,791 379,791 L 379,41 461,41 461,0 61,0 61,41 143,41 143,1536 61,1536 61,1577 461,1577 461,1536 379,1536 379,846 Z"
   id="glyph49" />
   <glyph
   unicode="Й"
   horiz-adv-x="1086"
   d="M 438,1884 C 444,1869 453,1854 466,1838 479,1822 494,1808 510,1795 526,1782 544,1771 563,1762 582,1753 601,1749 619,1749 638,1748 657,1751 678,1760 698,1769 717,1780 734,1794 751,1808 766,1823 779,1840 792,1857 801,1873 805,1888 L 862,1870 C 855,1847 844,1822 827,1795 811,1768 791,1744 766,1722 741,1700 714,1683 685,1669 656,1655 625,1650 594,1653 571,1653 549,1659 527,1671 506,1684 486,1699 468,1718 450,1736 433,1757 418,1781 403,1804 390,1829 381,1853 L 438,1884 Z M 61,41 L 143,41 143,1536 61,1536 61,1577 461,1577 461,1536 379,1536 379,852 809,1008 809,1536 727,1536 727,1577 1126,1577 1126,1536 1044,1536 1044,41 1126,41 1126,0 727,0 727,41 809,41 809,946 379,791 379,41 461,41 461,0 61,0 61,41 Z"
   id="glyph51" />
   <glyph
   unicode="И"
   horiz-adv-x="1086"
   d="M 61,41 L 143,41 143,1536 61,1536 61,1577 461,1577 461,1536 379,1536 379,852 809,1008 809,1536 727,1536 727,1577 1126,1577 1126,1536 1044,1536 1044,41 1126,41 1126,0 727,0 727,41 809,41 809,946 379,791 379,41 461,41 461,0 61,0 61,41 Z"
   id="glyph53" />
   <glyph
   unicode="З"
   horiz-adv-x="1430"
   d="M 1481,422 C 1479,467 1469,511 1451,553 1433,595 1409,634 1380,668 1352,702 1319,730 1282,754 1245,777 1208,792 1171,799 1199,816 1225,837 1251,859 1277,882 1300,907 1320,936 1340,965 1356,996 1368,1031 1380,1066 1387,1104 1387,1145 1387,1213 1374,1274 1350,1328 1325,1382 1290,1428 1245,1464 1200,1501 1147,1529 1084,1548 1022,1567 954,1577 879,1577 842,1577 807,1572 773,1562 740,1551 709,1540 681,1527 653,1514 628,1501 605,1489 583,1477 563,1468 547,1464 529,1460 512,1461 495,1465 478,1470 462,1478 447,1489 433,1500 421,1513 412,1529 402,1545 396,1561 393,1577 L 363,1577 363,1260 389,1260 C 434,1331 494,1384 568,1419 643,1455 726,1473 817,1473 861,1473 904,1465 945,1451 987,1437 1024,1417 1056,1391 1088,1365 1113,1334 1133,1298 1152,1262 1161,1223 1161,1181 1161,1087 1150,1014 1128,962 1107,911 1065,879 1004,868 972,863 942,863 914,869 886,876 861,884 837,894 813,904 791,914 771,925 751,935 735,942 721,946 L 500,805 C 487,794 487,784 500,774 L 721,631 C 737,636 755,647 774,662 793,677 815,691 839,706 863,720 888,731 915,739 943,748 972,749 1004,743 1035,737 1062,727 1085,715 1109,702 1128,683 1144,657 1160,631 1171,598 1179,557 1186,516 1190,464 1190,399 1190,335 1180,284 1161,246 1142,208 1117,178 1086,158 1056,137 1021,124 982,117 943,110 903,107 862,107 788,107 718,122 650,153 583,183 515,216 446,252 427,261 409,271 392,281 375,290 358,298 342,305 326,312 309,317 292,321 275,324 255,325 233,324 186,321 145,304 112,273 78,243 60,205 57,160 55,119 65,82 89,49 113,16 144,0 182,0 215,0 241,8 261,25 281,42 299,60 314,80 330,99 345,117 358,133 372,150 389,158 410,158 468,158 518,150 560,133 602,117 643,99 684,79 725,59 770,41 819,25 868,8 930,0 1004,0 1064,0 1122,7 1180,20 1237,34 1288,57 1333,90 1378,123 1414,166 1442,220 1469,274 1482,341 1481,422 Z"
   id="glyph55" />
   <glyph
   unicode="Е"
   horiz-adv-x="1165"
   d="M 1182,610 C 1187,609 1193,612 1198,619 1204,626 1201,631 1190,635 1174,642 1159,647 1147,650 1135,654 1129,665 1131,684 1133,742 1128,796 1114,848 1100,900 1080,946 1054,985 1027,1025 995,1056 958,1079 922,1101 881,1112 836,1112 785,1112 737,1103 691,1085 645,1066 602,1042 562,1011 522,980 485,945 452,904 418,864 388,823 360,781 355,793 349,815 341,848 333,881 326,917 319,958 313,998 307,1039 302,1080 297,1121 295,1155 295,1182 295,1220 301,1260 314,1302 327,1344 347,1381 374,1415 400,1448 434,1476 474,1498 514,1521 562,1534 616,1536 642,1538 668,1532 693,1520 719,1508 741,1491 762,1470 782,1449 799,1423 811,1393 823,1363 829,1331 829,1297 829,1290 821,1285 805,1282 788,1280 776,1275 766,1268 755,1261 752,1255 757,1249 762,1242 767,1240 772,1241 790,1246 814,1250 845,1255 876,1260 908,1264 943,1268 978,1272 1012,1275 1044,1277 1077,1279 1104,1280 1124,1280 1128,1280 1132,1282 1135,1287 1137,1291 1135,1296 1126,1303 1122,1306 1112,1308 1095,1309 1078,1310 1068,1313 1067,1317 1055,1372 1034,1416 1004,1450 973,1485 939,1511 899,1530 859,1549 817,1562 772,1569 727,1576 683,1580 641,1580 560,1580 485,1567 415,1541 344,1515 284,1477 232,1428 181,1379 142,1319 114,1248 86,1177 74,1097 78,1008 81,938 89,874 103,815 118,757 134,701 154,649 173,598 192,548 211,502 230,456 246,410 260,365 274,320 282,275 285,229 287,184 282,137 268,86 270,77 271,66 272,55 274,44 274,34 274,23 283,17 298,13 321,9 343,6 369,3 399,2 429,1 462,1 498,2 533,3 569,6 604,10 696,21 773,49 837,94 900,139 961,196 1018,264 1029,277 1041,281 1056,279 1070,276 1084,275 1098,275 1105,275 1110,280 1114,290 1118,300 1113,307 1100,309 1079,313 1053,319 1021,327 989,334 955,343 920,353 884,364 849,375 815,387 781,399 751,413 725,428 714,434 708,431 707,420 705,409 708,401 715,395 726,389 736,380 745,370 755,360 760,351 760,344 760,307 747,270 721,233 695,195 662,162 622,133 581,105 537,82 488,65 440,48 393,41 346,45 379,113 400,183 409,254 417,325 420,392 417,455 413,518 407,573 397,622 388,670 381,707 377,731 415,785 451,827 485,858 520,890 551,914 581,930 610,946 637,957 660,962 684,967 706,969 725,969 765,969 796,958 819,937 842,916 860,890 872,858 885,826 893,792 897,755 901,719 903,685 903,656 903,651 900,648 894,645 888,643 881,640 872,638 864,636 856,634 849,632 841,630 836,628 834,627 825,620 821,615 819,610 818,606 819,604 822,602 826,601 829,600 834,600 839,600 843,600 846,600 869,604 895,608 924,610 952,613 982,615 1012,617 1042,618 1071,618 1101,617 1130,615 1157,613 1182,610 Z"
   id="glyph57" />
   <glyph
   unicode="Г"
   horiz-adv-x="795"
   d="M 379,1536 L 504,1536 C 528,1507 549,1480 564,1455 580,1430 594,1405 605,1381 617,1358 627,1334 635,1311 643,1288 652,1264 662,1239 663,1236 666,1234 672,1233 677,1232 680,1234 680,1239 691,1287 707,1334 728,1380 749,1427 778,1479 813,1536 817,1543 821,1551 824,1562 828,1572 824,1577 813,1577 L 61,1577 61,1536 143,1536 143,41 61,41 61,0 461,0 461,41 379,41 379,1536 Z"
   id="glyph59" />
   <glyph
   unicode="В"
   horiz-adv-x="953"
   d="M 1010,0 L 1010,41 928,41 928,559 420,799 563,1051 C 630,1051 687,1058 733,1072 780,1087 817,1106 846,1129 874,1152 895,1179 908,1211 921,1242 928,1274 928,1307 928,1366 914,1413 888,1448 861,1484 826,1511 782,1530 739,1549 688,1562 632,1568 575,1574 517,1577 457,1577 414,1577 374,1573 337,1566 299,1558 266,1546 238,1530 209,1514 186,1493 169,1467 152,1442 143,1411 143,1374 L 143,41 61,41 61,0 1010,0 Z M 725,1307 C 725,1284 721,1259 712,1234 703,1209 690,1185 674,1164 657,1142 638,1124 614,1110 591,1097 565,1090 535,1090 L 379,817 379,1348 C 379,1390 383,1424 392,1449 401,1474 413,1493 427,1506 441,1519 457,1528 473,1531 489,1534 505,1536 520,1536 552,1536 580,1533 605,1527 630,1521 652,1509 670,1493 687,1477 701,1454 711,1423 720,1393 725,1355 725,1307 Z M 692,41 L 379,41 379,770 692,623 692,41 Z"
   id="glyph61" />
   <glyph
   unicode="Б"
   horiz-adv-x="953"
   d="M 1010,0 L 1010,41 928,41 928,791 C 925,791 913,791 893,791 872,791 848,792 819,796 791,799 768,803 752,807 705,821 659,838 614,859 569,881 529,901 495,921 460,941 432,958 411,972 389,987 379,994 379,994 L 379,1536 571,1536 C 584,1536 598,1528 614,1510 631,1493 647,1471 663,1444 678,1417 693,1387 706,1354 719,1321 727,1290 731,1260 734,1249 739,1243 748,1243 757,1243 763,1249 766,1260 782,1321 803,1374 827,1417 852,1461 883,1501 922,1536 931,1546 939,1555 944,1564 950,1573 943,1577 924,1577 L 61,1577 61,1536 143,1536 143,41 61,41 61,0 1010,0 Z M 692,41 L 379,41 379,940 692,756 692,41 Z"
   id="glyph63" />
   <glyph
   unicode="А"
   horiz-adv-x="1033"
   d="M 756,921 C 734,891 710,863 685,838 660,812 634,791 608,774 595,766 579,759 561,753 543,747 526,743 510,743 494,743 480,748 469,756 458,764 453,778 453,799 453,821 457,840 467,857 477,874 488,890 503,904 517,918 534,932 552,945 570,958 589,971 608,983 644,1006 674,1031 699,1057 725,1082 743,1111 756,1143 L 756,921 Z M 756,41 L 674,41 674,0 1073,0 1073,41 991,41 991,1536 1073,1536 1073,1577 674,1577 674,1536 756,1536 756,1292 C 738,1331 708,1364 665,1389 622,1414 576,1427 528,1427 496,1427 470,1423 451,1415 431,1407 416,1399 406,1392 401,1389 397,1386 392,1382 387,1378 383,1374 379,1370 339,1329 326,1283 340,1232 350,1196 371,1167 403,1147 436,1128 471,1123 508,1134 545,1145 573,1167 593,1201 613,1234 617,1269 606,1304 593,1344 571,1372 541,1388 565,1388 588,1384 610,1376 632,1368 652,1356 670,1342 687,1328 701,1311 712,1292 722,1273 727,1251 727,1226 727,1192 718,1163 700,1139 683,1116 660,1095 634,1078 607,1061 578,1047 545,1036 512,1025 481,1015 453,1005 417,994 384,981 352,966 321,951 294,933 270,910 247,888 229,861 215,830 201,800 195,764 195,723 195,698 203,677 219,659 236,642 255,628 279,619 243,612 213,596 188,570 164,545 151,513 150,475 148,442 157,413 175,387 194,361 216,343 244,332 244,288 240,249 233,214 227,179 214,148 195,121 180,100 161,83 138,68 116,53 90,43 61,39 L 61,0 535,0 535,41 C 507,45 484,53 465,63 446,74 427,91 410,113 393,133 379,163 368,202 356,241 349,284 346,332 375,340 399,356 418,381 437,406 446,433 446,465 446,496 439,525 423,550 407,575 386,593 358,604 429,611 498,633 565,671 632,708 696,762 756,833 L 756,41 Z"
   id="glyph65" />
   <glyph
   unicode=" "
   horiz-adv-x="926"
   id="glyph67" />
  </font>
</defs>
</svg>
